请选择 进入手机版 | 继续访问电脑版

风凌论坛

 找回密码
 立即注册

QQ登录

只需一步,快速开始

搜索
热搜:
查看: 1180|回复: 8

【高码收藏版】CCTV-中国共产党第19次全国代表大会开幕会/720P高清/国语/百度

[复制链接]
  • TA的每日心情
    开心
    前天 16:28
  • 签到天数: 1641 天

    [LV.Master]伴坛终老

     成长值: 10260
    发表于 2017-10-21 16:25:45 | 显示全部楼层 |阅读模式

    General
         Complete name : F:\111111111111112222\CCTV1.十九大.HDTV.720p.x264-songor.mkv
         Format : Matroska
         File size : 9.01 GiB
         Duration : 4h 20mn
         Overall bit rate : 4 950 Kbps
         Encoded date : UTC 2017-10-18 13:37:01
         Writing application : mkvmerge v6.3.0 ('You can't stop me!') built on Jun 28 2013 20:09:41
         Writing library : libebml v1.3.0 + libmatroska v1.4.0
      Video #1
         ID : 1
         Format : AVC
         Format/Info : Advanced Video Codec
         Format profile : High@L4.1
         Format settings, CABAC : Yes
         Format settings, ReFrames : 5 frames
         Muxing mode : Container profile=Unknown@4.1
         Codec ID : V_MPEG4/ISO/AVC
         Duration : 4h 20mn
         Bit rate : 4 403 Kbps
         Nominal bit rate : 4 500 Kbps
         Width : 1 280 pixels
         Height : 720 pixels
         Display aspect ratio : 16:9
         Frame rate : 25.000 fps
         Resolution : 8 bits
         Colorimetry : 4:2:0
         Scan type : Progressive
         Bits/(Pixel*Frame) : 0.191
         Stream size : 8.01 GiB (89%)
         Writing library : x264 core 133 r2334 a3ac64b
         Encoding settings : cabac=1 / ref=5 / deblock=1:-3:-3 / analyse=0x3:0x113 / me=umh / subme=7 / psy=1 / psy_rd=1.00:0.00 / mixed_ref=1 / me_range=16 / chroma_me=1 / trellis=1 / 8x8dct=1 / cqm=0 / deadzone=21,11 / fast_pskip=0 / chroma_qp_offset=-2 / threads=12 / lookahead_threads=2 / sliced_threads=0 / nr=0 / decimate=1 / interlaced=0 / bluray_compat=0 / constrained_intra=0 / bframes=3 / b_pyramid=2 / b_adapt=2 / b_bias=0 / direct=3 / weightb=1 / open_gop=0 / weightp=2 / keyint=250 / keyint_min=25 / scenecut=40 / intra_refresh=0 / rc_lookahead=50 / rc=2pass / mbtree=1 / bitrate=4500 / ratetol=1.0 / qcomp=0.70 / qpmin=0 / qpmax=69 / qpstep=4 / cplxblur=20.0 / qblur=0.5 / vbv_maxrate=14000 / vbv_bufsize=14000 / nal_hrd=none / ip_ratio=1.40 / aq=1:1.00
      Audio #2
         ID : 2
         Format : AC-3
         Format/Info : Audio Coding 3
         Codec ID : A_AC3
         Duration : 4h 20mn
         Bit rate mode : Constant
         Bit rate : 448 Kbps
         Channel(s) : 6 channels
         Channel positions : Front: L C R, Surround: L R, LFE
         Sampling rate : 48.0 KHz
         Stream size : 835 MiB (9%)



    百度网盘下载地址:
    链接: https://pan.baidu.com/s/1boR67k7 密码: sr3v
    回复

    使用道具 举报

  • TA的每日心情
    开心
    2018-5-5 23:33
  • 签到天数: 20 天

    [LV.4]偶尔看看III

    发表于 2017-10-21 16:37:54 | 显示全部楼层
    做一次沙发,感谢版主
    回复 支持 反对

    使用道具 举报

  • TA的每日心情
    开心
    2017-10-31 07:10
  • 签到天数: 378 天

    [LV.9]以坛为家II

    发表于 2017-10-22 06:21:16 | 显示全部楼层
    謝謝分享!!!
    回复 支持 反对

    使用道具 举报

  • TA的每日心情
    奋斗
    17 小时前
  • 签到天数: 1573 天

    [LV.Master]伴坛终老

    发表于 2017-10-23 00:22:49 | 显示全部楼层
    感谢分享!!!!!
    回复 支持 反对

    使用道具 举报

  • TA的每日心情
    开心
    2015-10-28 10:46
  • 签到天数: 182 天

    [LV.7]常住居民III

    发表于 2017-10-27 16:11:01 | 显示全部楼层
    这个必须顶啊~~~~~~~~~
    回复 支持 反对

    使用道具 举报

  • TA的每日心情
    开心
    2018-11-14 08:32
  • 签到天数: 14 天

    [LV.3]偶尔看看II

    发表于 2017-11-5 21:49:59 | 显示全部楼层
    谢谢分享,收藏了
    回复 支持 反对

    使用道具 举报

    该用户从未签到

    发表于 2017-11-25 23:59:32 | 显示全部楼层

    謝謝分享!!!
    回复 支持 反对

    使用道具 举报

  • TA的每日心情
    开心
    2018-7-19 01:29
  • 签到天数: 205 天

    [LV.7]常住居民III

    发表于 2017-12-3 03:14:54 | 显示全部楼层
    已收藏,很好,盼有闭幕和记者会的高清资源。谢谢!
    回复 支持 反对

    使用道具 举报

    该用户从未签到

    发表于 2019-1-5 23:05:05 | 显示全部楼层
    谢谢分享 !!!
    回复 支持 反对

    使用道具 举报

    您需要登录后才可以回帖 登录 | 立即注册

    本版积分规则

    手机版|小黑屋|文字版|风凌论坛

    GMT+8, 2019-1-19 18:35 , Processed in 0.853492 second(s), 24 queries .

    Powered by Discuz! X3.2

    © 2001-2013 Comsenz Inc.

    快速回复 返回顶部 返回列表