请选择 进入手机版 | 继续访问电脑版

风凌论坛

 找回密码
 立即注册

QQ登录

只需一步,快速开始

搜索
热搜:
查看: 3360|回复: 138

CCTV-甲午祭(全4集)/MP4/国语内嵌中字/百度

  [复制链接]
  • TA的每日心情
    开心
    7 小时前
  • 签到天数: 1640 天

    [LV.Master]伴坛终老

     成长值: 10215
    发表于 2015-7-31 21:49:25 | 显示全部楼层 |阅读模式

    个人整理发布,转载请注明来源@MisterDai/臻善先生





    甲午祭 (2014)
    类型: 惊悚 / 纪录片 / 传记 / 历史 / 战争 / 灾难
    制片国家/地区: 中国大陆
    语言: 汉语普通话
    上映日期: 2014-12-20
    片长: 4集,每集48分钟
    甲午祭 (豆瓣)
    https://movie.douban.com/subject/26386606/
    该纪录片分四集,每集约四十八分钟,分别从战略、精神与信仰、制度、国运四个方面,对甲午战争进行系统反思。与会领导和专家反映,该片通过勾勒19世纪国际局势的风云变幻,分别从“战略与政略”、“精神与信仰”、“制度与文化”、“战争与国运”四个维度,生动重现了甲午战争的战争进程,深度挖掘了中日对决败与胜的深层原因,全面检讨甲午战争给中华民族带来的深重灾难、巨大创痛、深刻教训和浴火重生。该片超越了战争,把反省延伸到了制度与文化层面,超越了历史,揭示了中日两国国运如何在甲午年早已草蛇灰线,同时还超越了时空,让看似天壤之别却面临同样战略困境的两个甲午年,在时隔120年后对话。


    代碼

    General
    Complete name : F:\MediaCache\uTorrent\CCTV.Jia.Wu.Ji.2014.Complete.1080P.Web-DL.AVC.ACC-YouTube\[CCTV] [1080P] 四集纪录片《甲午祭》 第二集 血性之失.mp4
    Format : MPEG-4
    Format profile : Base Media
    Codec ID : isom
    File size : 721 MiB
    Duration : 36mn 22s
    Overall bit rate : 2 770 Kbps
    Writing application : Lavf54.29.104

    Video
    ID : 1
    Format : AVC
    Format/Info : Advanced Video Codec
    Format profile : High@L4.0
    Format settings, CABAC : Yes
    Format settings, ReFrames : 2 frames
    Codec ID : avc1
    Codec ID/Info : Advanced Video Coding
    Duration : 36mn 22s
    Bit rate : 2 638 Kbps
    Width : 1 920 pixels
    Height : 1 080 pixels
    Display aspect ratio : 16:9
    Frame rate mode : Constant
    Frame rate : 25.000 fps
    Color space : YUV
    Chroma subsampling : 4:2:0
    Bit depth : 8 bits
    Scan type : Progressive
    Bits/(Pixel*Frame) : 0.051
    Stream size : 686 MiB (95%)

    Audio
    ID : 2
    Format : AAC
    Format/Info : Advanced Audio Codec
    Format profile : LC
    Codec ID : 40
    Duration : 36mn 22s
    Bit rate mode : Constant
    Bit rate : 126 Kbps
    Channel(s) : 2 channels
    Channel positions : Front: L R
    Sampling rate : 44.1 KHz
    Compression mode : Lossy
    Stream size : 32.7 MiB (5%)











    下载地址:(视频内嵌中字..回复可见..下载完成后把影片文件名后缀改成.mp4即可)
    游客,如果您要查看本帖隐藏内容请回复

    回复

    使用道具 举报

  • TA的每日心情
    开心
    2017-7-25 04:26
  • 签到天数: 618 天

    [LV.9]以坛为家II

    发表于 2015-8-1 00:08:03 | 显示全部楼层
    下载看看,谢谢楼主
    回复 支持 反对

    使用道具 举报

  • TA的每日心情
    开心
    2015-9-25 15:18
  • 签到天数: 56 天

    [LV.5]常住居民I

    发表于 2015-8-1 00:31:58 | 显示全部楼层
    谢谢分享,绝对的支持!
    回复 支持 反对

    使用道具 举报

  • TA的每日心情
    奋斗
    2018-7-15 10:21
  • 签到天数: 489 天

    [LV.9]以坛为家II

    发表于 2015-8-1 06:45:16 | 显示全部楼层
    感谢您的分享,辛苦了!
    回复 支持 反对

    使用道具 举报

  • TA的每日心情
    擦汗
    2015-10-24 17:22
  • 签到天数: 202 天

    [LV.7]常住居民III

    发表于 2015-8-1 07:02:45 | 显示全部楼层
    谢谢分享,绝对的支持!
    回复 支持 反对

    使用道具 举报

    该用户从未签到

    发表于 2015-8-1 08:15:00 | 显示全部楼层
    CCTV-甲午祭(全4集)/MP4/国语内嵌中字/百度
    回复 支持 反对

    使用道具 举报

  • TA的每日心情
    奋斗
    2018-9-2 00:29
  • 签到天数: 66 天

    [LV.6]常住居民II

    发表于 2015-8-1 10:14:07 | 显示全部楼层
    很好的纪录片
    回复 支持 反对

    使用道具 举报

  • TA的每日心情
    开心
    2018-3-29 19:30
  • 签到天数: 22 天

    [LV.4]偶尔看看III

    发表于 2015-8-1 12:09:16 | 显示全部楼层
    谢谢分享,绝对的支持
    回复 支持 反对

    使用道具 举报

  • TA的每日心情
    开心
    2018-9-4 12:15
  • 签到天数: 135 天

    [LV.7]常住居民III

    发表于 2015-8-1 12:18:31 | 显示全部楼层
    多謝分享
    回复 支持 反对

    使用道具 举报

    该用户从未签到

    发表于 2015-8-1 14:30:54 | 显示全部楼层
    谢谢分享
    回复 支持 反对

    使用道具 举报

    您需要登录后才可以回帖 登录 | 立即注册

    本版积分规则

    手机版|小黑屋|文字版|风凌论坛

    GMT+8, 2019-1-16 23:58 , Processed in 0.542713 second(s), 24 queries .

    Powered by Discuz! X3.2

    © 2001-2013 Comsenz Inc.

    快速回复 返回顶部 返回列表