请选择 进入手机版 | 继续访问电脑版

风凌论坛

 找回密码
 立即注册

QQ登录

只需一步,快速开始

搜索
热搜:
查看: 3518|回复: 169

NHK-台湾反服贸事件 占领议会24天的记录/720P高清/日语内嵌中字/百度

  [复制链接]
  • TA的每日心情
    开心
    2019-2-6 14:55
  • 签到天数: 1645 天

    [LV.Master]伴坛终老

     成长值: 11235
    发表于 2014-6-18 21:13:09 | 显示全部楼层 |阅读模式

    NHK纪录片
    台湾反服贸事件 占领议会24天的记录
    播出时间:2014年5月10日

    节目简介:
    2014年3月18日,台湾发生了一起前所未有的事件,因为对两岸服务贸易协议的不满,数百名学生发起了占领立法院的行动。
    一边是急欲靠"拼经济"来证明自身的马英九政府和觊觎大陆市场雄心勃勃的工商界大佬,另一边却是担心资本入侵后自己的小本生意难以为继的台湾普通民众。
    到底对台湾来说最重要的是什么?是重新腾飞的经济,是小确幸的平静生活,还是尊重民意的民主制度?
    这一场占领运动,让平日对政治漠不关心的台湾年轻人觉醒了,他们开始思考台湾的未来和自身的关联。

    Quote:
    General
    Complete name                            : F:\UP\[诸神字幕组][NHK纪录片][台湾反服贸事件 占领议会24天的记录][中日双语字幕][720P](1).mp4
    Format                                   : MPEG-4
    Format profile                           : Base Media
    Codec ID                                 : isom
    File size                                : 856 MiB
    Duration                                 : 48mn 59s
    Overall bit rate mode                    : Variable
    Overall bit rate                         : 2 442 Kbps
    Encoded date                             : UTC 2014-06-16 08:35:46
    Tagged date                              : UTC 2014-06-16 08:35:46

    Video
    ID                                       : 1
    Format                                   : AVC
    Format/Info                              : Advanced Video Codec
    Format profile                           : High@L3.1
    Format settings, CABAC                   : Yes
    Format settings, ReFrames                : 4 frames
    Codec ID                                 : avc1
    Codec ID/Info                            : Advanced Video Coding
    Duration                                 : 48mn 59s
    Bit rate                                 : 2 348 Kbps
    Maximum bit rate                         : 9 782 Kbps
    Width                                    : 1 280 pixels
    Height                                   : 720 pixels
    Display aspect ratio                     : 16:9
    Frame rate mode                          : Constant
    Frame rate                               : 29.970 fps
    Color space                              : YUV
    Chroma subsampling                       : 4:2:0
    Bit depth                                : 8 bits
    Scan type                                : Progressive
    Bits/(Pixel*Frame)                       : 0.085
    Stream size                              : 823 MiB (96%)
    Title                                    : 20140510.264 - Imported with GPAC 0.5.0-rev4065
    Writing library                          : x264 core 138 r2358 9e941d1
    Encoded date                             : UTC 2014-06-16 08:35:46
    Tagged date                              : UTC 2014-06-16 08:35:53

    Audio
    ID                                       : 2
    Format                                   : AAC
    Format/Info                              : Advanced Audio Codec
    Format profile                           : LC
    Codec ID                                 : 40
    Duration                                 : 48mn 59s
    Bit rate mode                            : Variable
    Bit rate                                 : 90.5 Kbps
    Maximum bit rate                         : 103 Kbps
    Channel(s)                               : 1 channel
    Channel positions                        : Front: C
    Sampling rate                            : 48.0 KHz
    Compression mode                         : Lossy
    Stream size                              : 31.7 MiB (4%)
    Encoded date                             : UTC 2014-06-16 08:35:52
    Tagged date                              : UTC 2014-06-16 08:35:53


    转载自CHD

    下载地址:(回复可见)

    游客,如果您要查看本帖隐藏内容请回复

    回复

    使用道具 举报

  • TA的每日心情
    开心
    昨天 03:14
  • 签到天数: 1842 天

    [LV.Master]伴坛终老

    发表于 2014-6-18 21:36:14 | 显示全部楼层
    谢谢楼主,楼主一辈子幸福!!!
    回复 支持 反对

    使用道具 举报

  • TA的每日心情
    开心
    2013-8-27 22:28
  • 签到天数: 1 天

    [LV.1]初来乍到

     成长值: 16950
    发表于 2014-6-18 21:50:30 | 显示全部楼层
    看看日本人思考的角度
    回复 支持 反对

    使用道具 举报

  • TA的每日心情
    慵懒
    2015-6-21 09:57
  • 签到天数: 164 天

    [LV.7]常住居民III

    发表于 2014-6-18 22:23:24 | 显示全部楼层
    鬼子的内部刺探我们必须要防范,同时台独疯子对统一事业的破坏和煽动必须警觉!
    回复 支持 反对

    使用道具 举报

  • TA的每日心情
    开心
    2015-1-5 22:01
  • 签到天数: 3 天

    [LV.2]偶尔看看I

    发表于 2014-6-18 22:25:28 | 显示全部楼层
    谢谢楼主分享
    回复 支持 反对

    使用道具 举报

  • TA的每日心情
    开心
    2017-12-31 04:19
  • 签到天数: 4 天

    [LV.2]偶尔看看I

    发表于 2014-6-18 22:30:16 | 显示全部楼层
    精彩                     
    回复 支持 反对

    使用道具 举报

  • TA的每日心情

    2015-6-13 18:39
  • 签到天数: 84 天

    [LV.6]常住居民II

    发表于 2014-6-18 22:38:05 | 显示全部楼层
    本是同根生,相煎何太急
    回复 支持 反对

    使用道具 举报

  • TA的每日心情

    2015-2-15 23:12
  • 签到天数: 86 天

    [LV.6]常住居民II

    发表于 2014-6-18 22:54:50 | 显示全部楼层
    到底对台湾来说最重要的是什么?
    回复 支持 反对

    使用道具 举报

    该用户从未签到

    发表于 2014-6-18 22:56:18 | 显示全部楼层
    好牛逼!!!
    回复 支持 反对

    使用道具 举报

  • TA的每日心情
    开心
    2016-2-13 12:45
  • 签到天数: 1 天

    [LV.1]初来乍到

    发表于 2014-6-18 23:35:28 | 显示全部楼层
    谢谢楼主分享
    回复 支持 反对

    使用道具 举报

    您需要登录后才可以回帖 登录 | 立即注册

    本版积分规则

    手机版|小黑屋|文字版|风凌论坛

    GMT+8, 2019-3-23 19:35 , Processed in 0.757319 second(s), 24 queries .

    Powered by Discuz! X3.2

    © 2001-2013 Comsenz Inc.

    快速回复 返回顶部 返回列表