请选择 进入手机版 | 继续访问电脑版

风凌论坛

 找回密码
 立即注册

QQ登录

只需一步,快速开始

搜索
热搜:
查看: 1613|回复: 61

CCTV-牡丹(第1集)/720P高清/国语内嵌中字/百度

  [复制链接]
  • TA的每日心情
    开心
    2019-4-1 16:17
  • 签到天数: 1647 天

    [LV.Master]伴坛终老

     成长值: 11670
    发表于 2014-4-9 20:58:16 | 显示全部楼层 |阅读模式
    片名:牡丹 / The Peony
    版本:中国大陆 CCTV-1
    片长:48 mn 30 s
    大小:1.68 GB
    字幕:简体中文 (硬字)
    语言:汉语普通话 (Mandarin)
    码率:4500k (视频) + 448k (音频)
    音轨:DD5.1 (48kHz/6声道/杜比环绕声)
    片源:无线自录源 (18Mbps/1080i/MPEG-2)
    收视:地面数字电视 (DTMB开路数字广播)
    首播:2014年04月08日23时38分
    导演:李侠、陶涛
    章节:有
    介绍:
      牡丹是中国著名的传统名花,不仅以形色富丽、雍容高贵而自古盛名,更承载着中华民族丰富的传统文化、精神象征和情感寄托。作为饮誉天下的“国花”,牡丹从栽培演化伊始就与中国政治、经济、文化结下了不解之缘,成为不可或缺的精神象征。一部牡丹的种植鉴赏史,几乎也是一部中国历史的演变史,一部中华文化的发展史。
      千百年来,牡丹因其富丽、芬芳、尊贵成为幸福美好、繁荣昌盛的象征,而在尊荣娇艳的背后,牡丹历经风霜、不畏逆境、坚韧顽强的生命力,不懈追求并创造美好生活的精神,也契合了中华民族独有的气质和精神。今天,历经风雨的中国迎来了伟大的民族复兴,牡丹将再次见证一个盛世的辉煌。
      牡丹是中国文化的一个标志性符号,现实的牡丹,以及牡丹背后的中华文化,是本片的着眼点。更重要的则是,由牡丹延伸出的中国人的生活和故事。
      本片用纪录片的手法,由牡丹和中国文化作为大背景,以细微鲜活的细节和人物故事为表现重点。以小见大,以点带面,把写实的牡丹写意化,把具象的牡丹抽象到生活和人物中去。最终将从三个层面探索并表现出牡丹这一中国独有的花卉,以及文化符号的形成和发扬。第一层面:牡丹的发展路线和生物性演变;第二层面:牡丹的文化特质和品牌塑造;第三层面:牡丹的精神特质和牡丹精神的传承。

      第1集:唯有牡丹真国色
      第2集:独立人间第一香
      第3集:天下真花独牡丹
      第4集:须是牡丹花盛发

    画面截图:





    文件信息:
    General
        Complete name: CCTV-1.The.Peony.1of4.720p.HDTV.x264.DD5.1-Conan06.mp4
        Format: MPEG-4
        Format profile: Base Media
        Codec ID: isom
        File size: 1.68 GiB
        Duration: 48mn 30s
        Overall bit rate mode: Variable
        Overall bit rate: 4 950 Kbps
        Encoded date: UTC 2014-04-09 02:17:42
        Tagged date: UTC 2014-04-09 02:17:42

    Video
        ID : 1
        Format: AVC
        Format/Info: Advanced Video Codec
        Format profile: High@L4.1
        Format settings, CABAC: Yes
        Format settings, ReFrames: 4 frames
        Frame mode: Frame doubling
        Codec ID: avc1
        Codec ID/Info: Advanced Video Coding
        Duration: 48mn 30s
        Bit rate mode: Variable
        Bit rate: 4 500 Kbps
        Maximum bit rate: 14.0 Mbps
        Width: 1 280 pixels
        Height: 720 pixels
        Display aspect ratio: 16:9
        Frame rate mode: Constant
        Frame rate: 25.000 fps
        Color space: YUV
        Chroma subsampling: 4:2:0
        Bit depth: 8 bits
        Scan type: Progressive
        Bits/(Pixel*Frame): 0.195
        Stream size: 1.52 GiB (91%)
        Title: The Peony - #1
        Writing library: x264 core 129 r2230 1cffe9f
        Encoding settings: cabac=1 / ref=5 / deblock=1:-1:-1 / analyse=0x3:0x133 / me=umh / subme=9 / psy=1 / psy_rd=1.00:0.15 / mixed_ref=1 / me_range=24 / chroma_me=1 / trellis=2 / 8x8dct=1 / cqm=0 / deadzone=21,11 / fast_pskip=0 / chroma_qp_offset=-3 / threads=6 / lookahead_threads=1 / sliced_threads=0 / slices=4 / nr=0 / decimate=1 / interlaced=0 / bluray_compat=1 / constrained_intra=0 / bframes=3 / b_pyramid=1 / b_adapt=1 / b_bias=0 / direct=1 / weightb=1 / open_gop=1 / weightp=1 / keyint=25 / keyint_min=1 / scenecut=40 / intra_refresh=0 / rc_lookahead=25 / rc=2pass / mbtree=1 / bitrate=4500 / ratetol=1.0 / qcomp=0.60 / qpmin=0 / qpmax=69 / qpstep=4 / cplxblur=20.0 / qblur=0.5 / vbv_maxrate=14000 / vbv_bufsize=14000 / nal_hrd=vbr / ip_ratio=1.40 / aq=1:1.00
        Encoded date: UTC 2014-04-08 23:02:43
        Tagged date: UTC 2014-04-09 02:19:38
        Color primaries: BT.709
        Transfer characteristics: BT.709
        Matrix coefficients: BT.709

    Audio
        ID: 2
        Format: AC-3
        Format/Info: Audio Coding 3
        Mode extension: CM (complete main)
        Format settings, Endianness: Big
        Codec ID: ac-3
        Duration: 48mn 30s
        Bit rate mode: Constant
        Bit rate: 448 Kbps
        Channel(s): 6 channels
        Channel positions: Front: L C R, Side: L R, LFE
        Sampling rate: 48.0 KHz
        Bit depth: 16 bits
        Compression mode: Lossy
        Stream size: 155 MiB (9%)
        Title: Mandarin
        Language: Chinese
        Encoded date: UTC 2014-04-09 02:19:21
        Tagged date: UTC 2014-04-09 02:19:38

    Text
        ID: 3
        Format: Timed Text
        Codec ID: tx3g
        Duration: 47mn 59s
        Bit rate mode: Variable
        Bit rate: 1 bps
        Stream size: 320 Bytes (0%)
        Title: Conan06
        Language: Chinese
        Encoded date: UTC 2014-04-09 02:19:38
        Tagged date: UTC 2014-04-09 02:19:38

    Menu
        00:00:00.000: Opening
        00:01:35.080: Chapter 1
        00:16:03.000: Chapter 2
        00:34:54.000: Chapter 3
        00:47:15.440: Preview
        00:48:00.000: Ending


    转载自3E帝国

    下载地址:(回复可见)

    游客,如果您要查看本帖隐藏内容请回复
    回复

    使用道具 举报

  • TA的每日心情
    郁闷
    2014-8-19 11:14
  • 签到天数: 4 天

    [LV.2]偶尔看看I

    发表于 2014-4-9 21:41:10 | 显示全部楼层
    看看国花牡丹,感谢分享
    回复 支持 反对

    使用道具 举报

  • TA的每日心情
    开心
    2016-4-9 11:27
  • 签到天数: 8 天

    [LV.3]偶尔看看II

    发表于 2014-4-10 00:20:59 | 显示全部楼层
    好好好好好好好好好好好好
    回复 支持 反对

    使用道具 举报

  • TA的每日心情
    开心
    2016-7-25 00:43
  • 签到天数: 662 天

    [LV.9]以坛为家II

    发表于 2014-4-10 01:45:08 | 显示全部楼层
    这个版本有几处数码马赛克干扰波,1.92G那个版本好像好些,也是MP4。都下了。
    回复 支持 反对

    使用道具 举报

  • TA的每日心情
    开心
    2015-12-7 09:45
  • 签到天数: 12 天

    [LV.3]偶尔看看II

    发表于 2014-4-10 07:03:27 | 显示全部楼层
    谢谢提供!
    回复 支持 反对

    使用道具 举报

  • TA的每日心情
    开心
    2016-6-11 06:41
  • 签到天数: 5 天

    [LV.2]偶尔看看I

    发表于 2014-4-10 08:08:52 | 显示全部楼层
    vn1s
    谢谢提供!
    回复 支持 反对

    使用道具 举报

  • TA的每日心情
    开心
    2015-11-20 11:56
  • 签到天数: 31 天

    [LV.5]常住居民I

    发表于 2014-4-10 08:23:33 | 显示全部楼层
    谢谢分享
    回复 支持 反对

    使用道具 举报

  • TA的每日心情
    奋斗
    2019-2-21 00:02
  • 签到天数: 250 天

    [LV.8]以坛为家I

    发表于 2014-4-10 08:35:16 | 显示全部楼层
    谢谢楼主分享视频!!辛苦啦
    回复 支持 反对

    使用道具 举报

  • TA的每日心情

    2019-3-9 15:29
  • 签到天数: 157 天

    [LV.7]常住居民III

    发表于 2014-4-10 08:57:47 | 显示全部楼层
    看看国花牡丹,感谢分享
    回复 支持 反对

    使用道具 举报

  • TA的每日心情
    开心
    2019-4-4 15:33
  • 签到天数: 268 天

    [LV.8]以坛为家I

    发表于 2014-4-10 10:28:00 | 显示全部楼层
    谢谢楼主分享,好人会有好报的
    回复 支持 反对

    使用道具 举报

    您需要登录后才可以回帖 登录 | 立即注册

    本版积分规则

    手机版|小黑屋|文字版|风凌论坛

    GMT+8, 2019-4-21 06:52 , Processed in 0.970709 second(s), 24 queries .

    Powered by Discuz! X3.2

    © 2001-2013 Comsenz Inc.

    快速回复 返回顶部 返回列表