请选择 进入手机版 | 继续访问电脑版

风凌论坛

 找回密码
 立即注册

QQ登录

只需一步,快速开始

搜索
热搜:
查看: 6438|回复: 413

【新春福利】舒淇纯美写真-温存/DVD5原盘/百度

  [复制链接]
风凌网友
风凌网友  发表于 2014-2-6 21:14:57 |阅读模式
F:\Tender Feeling 1996 NTSC DVD5\VIDEO_TS\VTS_01_1.VOB

网上没有简介..........


General
   Complete name : F:\Tender Feeling 1996 NTSC DVD5\VIDEO_TS\VTS_01_1.VOB
   Format : MPEG-PS
   File size : 1 024 MiB
   Duration : 22mn 25s
   Overall bit rate : 6 385 Kbps
Video #224
   ID : 224 (0xE0)
   Format : MPEG Video
   Format version : Version 2
   Format profile : Main@Main
   Format settings, BVOP : Yes
   Format settings, Matrix : Default
   Format settings, GOP : M=3, N=13
   Duration : 22mn 25s
   Bit rate : 6 000 Kbps
   Width : 720 pixels
   Height : 480 pixels
   Display aspect ratio : 4:3
   Frame rate : 29.970 fps
   Standard : NTSC
   Color space : YUV
   Chroma subsampling : 4:2:0
   Bit depth : 8 bits
   Scan type : Interlaced
   Scan order : Top Field First
   Compression mode : Lossy
   Bits/(Pixel*Frame) : 0.579
   Stream size : 962 MiB (94%)
Audio #189-128
   ID : 189 (0xBD)-128 (0x80)
   Format : AC-3
   Format/Info : Audio Coding 3
   Mode extension : CM (complete main)
   Muxing mode : DVD-Video
   Duration : 22mn 24s
   Bit rate mode : Constant
   Bit rate : 256 Kbps
   Channel(s) : 2 channels
   Channel positions : Front: L R
   Sampling rate : 48.0 KHz
   Bit depth : 16 bits
   Compression mode : Lossy
   Stream size : 41.0 MiB (4%)


转载自CHD

下载地址:(回复可见)

游客,如果您要查看本帖隐藏内容请回复



回复

使用道具 举报

该用户从未签到

发表于 2014-2-6 21:33:23 | 显示全部楼层
终于出来了?!
回复 支持 反对

使用道具 举报

  • TA的每日心情
    开心
    2016-12-27 11:59
  • 签到天数: 11 天

    [LV.3]偶尔看看II

    发表于 2014-2-6 21:35:25 | 显示全部楼层
    可以收藏。
    回复 支持 反对

    使用道具 举报

  • TA的每日心情
    无聊
    2015-12-15 19:05
  • 签到天数: 2 天

    [LV.1]初来乍到

    发表于 2014-2-6 21:40:38 | 显示全部楼层
    感谢楼主分享
    回复 支持 反对

    使用道具 举报

  • TA的每日心情
    开心
    2016-3-4 00:19
  • 签到天数: 15 天

    [LV.4]偶尔看看III

    发表于 2014-2-6 21:44:17 | 显示全部楼层
    出来了~~~~~
    回复 支持 反对

    使用道具 举报

  • TA的每日心情
    擦汗
    2018-3-14 18:46
  • 签到天数: 717 天

    [LV.9]以坛为家II

    发表于 2014-2-6 22:04:55 | 显示全部楼层
    看看美女写真
    回复 支持 反对

    使用道具 举报

  • TA的每日心情
    奋斗
    2016-3-18 12:21
  • 签到天数: 5 天

    [LV.2]偶尔看看I

    发表于 2014-2-6 22:12:27 | 显示全部楼层
    这个可是经典中的极品
    回复 支持 反对

    使用道具 举报

  • TA的每日心情
    开心
    2018-5-17 08:36
  • 签到天数: 1273 天

    [LV.10]以坛为家III

    发表于 2014-2-6 22:20:03 | 显示全部楼层
    感谢分享,享用福利。
    回复 支持 反对

    使用道具 举报

    该用户从未签到

    发表于 2014-2-6 22:25:53 | 显示全部楼层
    这儿好的资源,祝福论坛越来越兴旺
    回复 支持 反对

    使用道具 举报

    该用户从未签到

    发表于 2014-2-6 22:29:42 | 显示全部楼层
    这个貌似不错啊~
    回复 支持 反对

    使用道具 举报

    您需要登录后才可以回帖 登录 | 立即注册

    本版积分规则

    手机版|小黑屋|文字版|风凌论坛

    GMT+8, 2018-8-15 09:48 , Processed in 1.021961 second(s), 24 queries .

    Powered by Discuz! X3.2

    © 2001-2013 Comsenz Inc.

    快速回复 返回顶部 返回列表