请选择 进入手机版 | 继续访问电脑版

风凌论坛

 找回密码
 立即注册

QQ登录

只需一步,快速开始

搜索
热搜:
查看: 3573|回复: 183

国家地理-超级工厂-瑞士军刀/720P高清/英语中字/百度

  [复制链接]
  • TA的每日心情
    开心
    2018-7-6 10:59
  • 签到天数: 1625 天

    [LV.Master]伴坛终老

     成长值: 7470
    发表于 2013-11-25 11:21:09 | 显示全部楼层 |阅读模式




    ※※※※※※※※※※ 影片信息 ※※※※※※※※※※

    英文名:Megafactories.Swiss.Army.Knife
    中文名:超级工厂.瑞士军刀
    地  区:美国
    语  言:英语
    时  长:约 47 分钟
    大  小:0.7G/mkv/720p

    简介
    1891年,瑞士人Karl Elsener是最早制作瑞士军刀的人。当时的瑞士军刀有木制的手柄(今日多为塑胶和金属制),并仅有两种工具,分别是螺丝起子,和开罐器。在1897年时,Karl Elsener发明了新的弹簧,瑞士军刀才开始能够装进比较多的工具。1890年代是瑞士军方开始使用瑞士自制刀子的年代,过去他们都采用德国制的刀子。
    1909年,Karl Elsener开始在瑞士军刀的红色握把上刻白色十字盾牌来做商标,并以母亲之名Victoria来命名这个产品,创立了Victorinox(维氏)。1940年代,驻欧洲的美军相当喜爱这种多用途的小刀,但因不会发德语Offiziermesser的音(德文原意为“军官刀”),便称此刀为Swiss Army Knife(瑞士军刀)。目前Victorinox依然在供应瑞士军方这种小刀。
    另一家向瑞士军方供应瑞士军刀的公司是Wenger(威戈)。除了这两家公司以外,还有众多的厂商生产类似的多用途工具刀。但是一般只有Victorinox和Wenger的产品才被认为是正宗的瑞士军刀。2005年维氏兼并了威戈。


    ※※※※※※※※※※ 资料参数 ※※※※※※※※※※

    C:\Users\uniquewzf\Desktop\【国家地理.伟大工程巡礼.超级工厂.瑞士军刀.swiss.army.knife.720p.hdtv.x264-knifesharp.mkv
      General
        Unique ID : 214295804028091498315208393035608145916 (0xA137DEDF35EC4D0EA54C290F4362BFFC)
        Complete name : C:\Users\uniquewzf\Desktop\【国家地理.伟大工程巡礼.超级工厂.瑞士军刀.swiss.army.knife.720p.hdtv.x264-knifesharp.mkv
        Format : Matroska
        Format version : Version 2
        File size : 826 MiB
        Duration : 44mn 58s
        Overall bit rate : 2 568 Kbps
        Encoded date : UTC 2012-08-16 14:35:05
        Writing application : mkvmerge v5.2.1 ('A Far Off Place') built on Jan  2 2012 23:21:10
        Writing library : libebml v1.2.3 + libmatroska v1.3.0
      Video #1
        ID : 1
        Format : AVC
        Format/Info : Advanced Video Codec
        Format profile : High@L4.1
        Format settings, CABAC : Yes
        Format settings, ReFrames : 5 frames
        Codec ID : V_MPEG4/ISO/AVC
        Duration : 44mn 58s
        Bit rate : 2 133 Kbps
        Width : 1 280 pixels
        Height : 720 pixels
        Display aspect ratio : 16:9
        Frame rate mode : Constant
        Frame rate : 25.000 fps
        Color space : YUV
        Chroma subsampling : 4:2:0
        Bit depth : 8 bits
        Scan type : Progressive
        Bits/(Pixel*Frame) : 0.093
        Stream size : 686 MiB (83%)
        Writing library : x264 core 125 r2208 d9d2288
        Default : Yes
        Forced : No
      Audio #2
        ID : 2
        Format : AC-3
        Format/Info : Audio Coding 3
        Mode extension : CM (complete main)
        Format settings, Endianness : Big
        Codec ID : A_AC3
        Duration : 44mn 58s
        Bit rate mode : Constant
        Bit rate : 384 Kbps
        Channel count : 6 channels
        Channel positions : Front: L C R, Side: L R, LFE
        Sampling rate : 48.0 KHz
        Bit depth : 16 bits
        Compression mode : Lossy
        Delay relative to video : 96ms
        Stream size : 124 MiB (15%)
        Language : English
        Default : Yes
        Forced : No



    ※※※※※※※※※※ 截图信息 ※※※※※※※※※※





























    提供两个版本下载,其中0.65G版本的是英语内嵌中文字幕,0.83G版本的是英语外挂中文字幕。字幕来源于http://www.shooter.cn/xml/sub/255/255582.xml,提供者为无名、wwku,非常感谢他们!

    转载自纪录片之家

    下载地址:(回复可见)

    游客,如果您要查看本帖隐藏内容请回复

    回复

    使用道具 举报

  • TA的每日心情
    开心
    2015-10-13 13:42
  • 签到天数: 10 天

    [LV.3]偶尔看看II

    发表于 2013-11-25 11:45:27 | 显示全部楼层
    支持一下,感谢分享!!
    回复 支持 反对

    使用道具 举报

  • TA的每日心情
    慵懒
    2015-11-3 10:58
  • 签到天数: 3 天

    [LV.2]偶尔看看I

    发表于 2013-11-25 12:13:32 | 显示全部楼层
    支持一下,感谢分享!!
    回复 支持 反对

    使用道具 举报

  • TA的每日心情
    奋斗
    2018-6-6 18:56
  • 签到天数: 531 天

    [LV.9]以坛为家II

    发表于 2013-11-25 12:31:21 | 显示全部楼层
    感谢楼主分享
    回复 支持 反对

    使用道具 举报

  • TA的每日心情
    开心
    2015-1-5 22:01
  • 签到天数: 3 天

    [LV.2]偶尔看看I

    发表于 2013-11-25 12:45:51 | 显示全部楼层
    感谢楼主分享
    回复 支持 反对

    使用道具 举报

  • TA的每日心情
    开心
    2015-9-26 10:23
  • 签到天数: 13 天

    [LV.3]偶尔看看II

    发表于 2013-11-25 13:00:09 | 显示全部楼层
    谢谢楼主分享
    回复 支持 反对

    使用道具 举报

  • TA的每日心情
    无聊
    2013-8-28 11:52
  • 签到天数: 1 天

    [LV.1]初来乍到

    发表于 2013-11-25 13:36:16 | 显示全部楼层
    好片子,谢谢楼主分享!
    回复 支持 反对

    使用道具 举报

  • TA的每日心情
    开心
    2015-5-7 10:45
  • 签到天数: 238 天

    [LV.7]常住居民III

    发表于 2013-11-25 13:50:39 | 显示全部楼层
    感谢楼主给于分享
    回复 支持 反对

    使用道具 举报

  • TA的每日心情
    开心
    2016-4-22 12:28
  • 签到天数: 342 天

    [LV.8]以坛为家I

     成长值: 5610
    发表于 2013-11-25 15:52:17 | 显示全部楼层
    喜欢看这种纪录片!感谢分享!
    回复 支持 反对

    使用道具 举报

  • TA的每日心情
    无聊
    2015-12-15 19:05
  • 签到天数: 2 天

    [LV.1]初来乍到

    发表于 2013-11-25 15:57:45 | 显示全部楼层
    支持一下,感谢分享!!
    回复 支持 反对

    使用道具 举报

    您需要登录后才可以回帖 登录 | 立即注册

    本版积分规则

    手机版|小黑屋|文字版|风凌论坛

    GMT+8, 2018-7-17 17:06 , Processed in 1.634514 second(s), 24 queries .

    Powered by Discuz! X3.2

    © 2001-2013 Comsenz Inc.

    快速回复 返回顶部 返回列表